تنويه الى زوارالموقع الكرام سيتم غلق الفيديو للزوار يمكنكم التسجيلمن اجل امكانية مشاهدة جديد الموقع سجل عضويتك من كلمه انضمام لهذا الموقع فى العمود اللى ع اليمين

لتسجيل نفسك عضو معنا فى الموقع ولمشاهده جميع الفيديوهات دون تقطيع

| 0 التعليقات ]



History | Horror
5.1/10

Territories 2010 DVDRip XviD-aAF


http://img805.imageshack.us/img805/8025/mwdyn.jpg

http://img507.imageshack.us/img507/1962/territories.jpg
إقتباس
الترجمة



http://www.imdb.com/title/tt1683970/


كود:
Format                           : AVI
Format/Info                      : Audio Video Interleave
File size                        : 700 MiB
Duration                         : 1h 31mn
Overall bit rate                 : 1 066 Kbps
Writing application              : VirtualDubMod 1.5.10.2 (build 2540/release)
Writing library                  : VirtualDubMod build 2540/release

Video
ID                               : 0
Format                           : MPEG-4 Visual
Format profile                   : Advanced Simple@L5
Format settings, BVOP            : Yes
Format settings, QPel            : No
Format settings, GMC             : No warppoints
Format settings, Matrix          : Default (H.263)
Codec ID                         : XVID
Codec ID/Hint                    : XviD
Duration                         : 1h 31mn
Bit rate                         : 926 Kbps
Width                            : 624 pixels
Height                           : 336 pixels
Display aspect ratio             : 1.857
Frame rate                       : 25.000 fps
Color space                      : YUV
Chroma subsampling               : 4:2:0
Bit depth                        : 8 bits
Scan type                        : Progressive
Bits/(Pixel*Frame)               : 0.177
Stream size                      : 608 MiB (87%)
Writing library                  : XviD 64

Audio
ID                               : 1
Format                           : MPEG Audio
Format version                   : Version 1
Format profile                   : Layer 3
Mode                             : Joint stereo
Codec ID                         : 55
Codec ID/Hint                    : MP3
Duration                         : 1h 31mn
Bit rate mode                    : Variable
Bit rate                         : 128 Kbps
Channel(s)                       : 2 channels
Sampling rate                    : 48.0 KHz
Stream size                      : 83.4 MiB (12%)
Alignment                        : Aligned on interleaves
Interleave, duration             : 24 ms (0.60 video frame)
Interleave, preload duration     : 500 ms
Writing library                  : LAME3.90.
Encoding settings                : -m j -V 4 -q 2 -lowpass 17.6 --abr 128
اعلان الفيلم////youtube
YouTube Video
 


http://img824.imageshack.us/img824/8382/26179839.png

http://img7.imageshack.us/img7/5857/42758001.png

http://img526.imageshack.us/img526/6494/48294812.png

http://img844.imageshack.us/img844/9659/86651078.png



رابط واحد Single Link


http://www.filefactory.com/file/cfef290/n/Terr_10_DV_dvd4arab_X_avi


علي اربع اجزاء


mediafire.com


1
2
3
4

0 التعليقات

إرسال تعليق

مسلسل خريف الحب

Friends18.com Orkut Scraps

اذاعه القرأن الكريم 24 ساعه



تنويه الى زوارالموقع الكرام سيتم غلق الفيديو للزوار يمكنكم التسجيلمن اجل امكانية مشاهدة جديد الموقع سجل عضويتك من كلمه انضمام لهذا الموقع فى العمود اللى ع اليمين

لتسجيل نفسك عضو معنا فى الموقع ولمشاهده جميع الفيديوهات دون تقطيع