تنويه الى زوارالموقع الكرام سيتم غلق الفيديو للزوار يمكنكم التسجيلمن اجل امكانية مشاهدة جديد الموقع سجل عضويتك من كلمه انضمام لهذا الموقع فى العمود اللى ع اليمين

لتسجيل نفسك عضو معنا فى الموقع ولمشاهده جميع الفيديوهات دون تقطيع

| 0 التعليقات ]



Horror | Thriller
إقتباس
6.3/10

Panic Button 2011 DVDRiP XViD-TASTE


http://img593.imageshack.us/img593/8914/fiutf.jpg

إقتباس
الترجمة



http://www.imdb.com/title/tt1727358/

Format : AVI

كود:
Format                           : AVI
Format/Info                      : Audio Video Interleave
File size                        : 700 MiB
Duration                         : 1h 31mn
Overall bit rate                 : 1 066 Kbps
Writing application              : VirtualDubMod 1.5.10.2 (build 2540/release)
Writing library                  : VirtualDubMod build 2540/release

Video
ID                               : 0
Format                           : MPEG-4 Visual
Format profile                   : Advanced Simple@L5
Format settings, BVOP            : Yes
Format settings, QPel            : No
Format settings, GMC             : No warppoints
Format settings, Matrix          : Default (H.263)
Muxing mode                      : Packed bitstream
Codec ID                         : XVID
Codec ID/Hint                    : XviD
Duration                         : 1h 31mn
Bit rate                         : 913 Kbps
Width                            : 640 pixels
Height                           : 272 pixels
Display aspect ratio             : 2.35:1
Frame rate                       : 25.000 fps
Color space                      : YUV
Chroma subsampling               : 4:2:0
Bit depth                        : 8 bits
Scan type                        : Progressive
Bits/(Pixel*Frame)               : 0.210
Stream size                      : 599 MiB (86%)
Writing library                  : XviD 1.2.1 (UTC 2008-12-04)

Audio
ID                               : 1
Format                           : MPEG Audio
Format version                   : Version 1
Format profile                   : Layer 3
Mode                             : Joint stereo
Mode extension                   : MS Stereo
Codec ID                         : 55
Codec ID/Hint                    : MP3
Duration                         : 1h 31mn
Bit rate mode                    : Variable
Bit rate                         : 144 Kbps
Channel(s)                       : 2 channels
Sampling rate                    : 48.0 KHz
Stream size                      : 92.1 MiB (13%)
Alignment                        : Aligned on interleaves
Interleave, duration             : 24 ms (0.60 video frame)
Interleave, preload duration     : 131 ms
Writing library                  : LAME3.98r
Encoding settings                : -m j -V 4 -q 2 -lowpass 17.5 --abr 144
اعلان الفيلم////youtube
YouTube Video
 


http://img163.imageshack.us/img163/1...0916h33m12.png

http://img528.imageshack.us/img528/1...1008h13m16.png

http://img831.imageshack.us/img831/1...1008h13m29.png

http://img508.imageshack.us/img508/4...1008h12m54.png

http://img338.imageshack.us/img338/1...bxavithumb.jpg


رابط واحد Single Link
كود:
filesonic.com..............
http://adf.ly/3fI1b

fileserve.com......................
http://adf.ly/3fI1c
روابط  200 mb

mediafire.com................................
http://adf.ly/3fGyy 
http://adf.ly/3fGyz

http://adf.ly/3fGz0

http://adf.ly/3fGz2

0 التعليقات

إرسال تعليق

مسلسل خريف الحب

Friends18.com Orkut Scraps

اذاعه القرأن الكريم 24 ساعه



تنويه الى زوارالموقع الكرام سيتم غلق الفيديو للزوار يمكنكم التسجيلمن اجل امكانية مشاهدة جديد الموقع سجل عضويتك من كلمه انضمام لهذا الموقع فى العمود اللى ع اليمين

لتسجيل نفسك عضو معنا فى الموقع ولمشاهده جميع الفيديوهات دون تقطيع