تنويه الى زوارالموقع الكرام سيتم غلق الفيديو للزوار يمكنكم التسجيلمن اجل امكانية مشاهدة جديد الموقع سجل عضويتك من كلمه انضمام لهذا الموقع فى العمود اللى ع اليمين

لتسجيل نفسك عضو معنا فى الموقع ولمشاهده جميع الفيديوهات دون تقطيع

| 0 التعليقات ]

The Caller (2011

Horror | Mystery | Thriller
5.7/10
The Caller 2011 DVDRIP Xvid-BHRG
http://img94.imageshack.us/img94/18/thecallerposter.jpg


إقتباس
الترحمة



http://www.imdb.com/title/tt1525890/

Format : AVI

كود:
Format                           : AVI
Format/Info                      : Audio Video Interleave
Format profile                   : OpenDML
File size                        : 743 MiB
Duration                         : 1h 28mn
Overall bit rate                 : 1 178 Kbps
Writing application              : AVI-Mux GUI 1.17.8, Aug 30 2008  12:36:58

Video
ID                               : 0
Format                           : MPEG-4 Visual
Format profile                   : Advanced Simple@L5
Format settings, BVOP            : Yes
Format settings, QPel            : No
Format settings, GMC             : No warppoints
Format settings, Matrix          : Default (H.263)
Codec ID                         : XVID
Codec ID/Hint                    : XviD
Duration                         : 1h 28mn
Bit rate                         : 1 041 Kbps
Width                            : 608 pixels
Height                           : 336 pixels
Display aspect ratio             : 16:9
Frame rate                       : 25.000 fps
Color space                      : YUV
Chroma subsampling               : 4:2:0
Bit depth                        : 8 bits
Scan type                        : Progressive
Bits/(Pixel*Frame)               : 0.204
Stream size                      : 656 MiB (88%)
Writing library                  : XviD 1.2.1 (UTC 2008-12-04)

Audio
ID                               : 1
Format                           : MPEG Audio
Format version                   : Version 1
Format profile                   : Layer 3
Mode                             : Joint stereo
Codec ID                         : 55
Codec ID/Hint                    : MP3
Duration                         : 1h 28mn
Bit rate mode                    : Constant
Bit rate                         : 128 Kbps
Channel(s)                       : 2 channels
Sampling rate                    : 48.0 KHz
Stream size                      : 80.7 MiB (11%)
Alignment                        : Aligned on interleaves
Interleave, duration             : 24 ms (0.60 video frame)
Interleave, preload duration     : 504 ms
Title                            : VTS_01_1 T80 3_2ch 448Kbps DELAY 0ms
Writing library                  : LAME3.98r
Encoding settings                : -m j -V 4 -q 2 -lowpass 17 -b 128-m j  -V 4 -q 2 -lowpass 17 -b 128-m j -V 4 -q 2 -lowpass 17 -b 128
اعلان الفيلم////youtube
YouTube Video
 


http://img542.imageshack.us/img542/1...2711h01m53.png

http://img249.imageshack.us/img249/7...2710h58m35.png

http://img641.imageshack.us/img641/6...2711h01m19.png

http://img713.imageshack.us/img713/4...2710h58m42.png


رابط واحد Single Link



هنا
او 
هنا


علي اربع اجزاء
1
2
3
4

0 التعليقات

إرسال تعليق

مسلسل خريف الحب

Friends18.com Orkut Scraps

اذاعه القرأن الكريم 24 ساعه



تنويه الى زوارالموقع الكرام سيتم غلق الفيديو للزوار يمكنكم التسجيلمن اجل امكانية مشاهدة جديد الموقع سجل عضويتك من كلمه انضمام لهذا الموقع فى العمود اللى ع اليمين

لتسجيل نفسك عضو معنا فى الموقع ولمشاهده جميع الفيديوهات دون تقطيع