تنويه الى زوارالموقع الكرام سيتم غلق الفيديو للزوار يمكنكم التسجيلمن اجل امكانية مشاهدة جديد الموقع سجل عضويتك من كلمه انضمام لهذا الموقع فى العمود اللى ع اليمين

لتسجيل نفسك عضو معنا فى الموقع ولمشاهده جميع الفيديوهات دون تقطيع

| 0 التعليقات ]



Action | Biography | Drama

إقتباس
7.0/10

The Devils Double LIMITED 2011 BDRip XviD-Counterfeit

http://img341.imageshack.us/img341/1...doublever2.jpg


http://www.imdb.com/title/tt1270262/


كود:
the.devils.double.xvid.cd1.avi
Format                           : AVI
Format/Info                      : Audio Video Interleave
File size                        : 702 MiB
Duration                         : 54mn 54s
Overall bit rate                 : 1 787 Kbps
Writing application              : VirtualDubMod 1.5.10.2 (build 2540/release)
Writing library                  : VirtualDubMod build 2540/release
segm                             : 

Video
ID                               : 0
Format                           : MPEG-4 Visual
Format profile                   : Advanced Simple@L5
Format settings, BVOP            : Yes
Format settings, QPel            : No
Format settings, GMC             : No warppoints
Format settings, Matrix          : Default (H.263)
Codec ID                         : XVID
Codec ID/Hint                    : XviD
Duration                         : 54mn 54s
Bit rate                         : 1 329 Kbps
Width                            : 640 pixels
Height                           : 272 pixels
Display aspect ratio             : 2.35:1
Frame rate                       : 23.976 fps
Color space                      : YUV
Chroma subsampling               : 4:2:0
Bit depth                        : 8 bits
Scan type                        : Progressive
Bits/(Pixel*Frame)               : 0.318
Stream size                      : 522 MiB (74%)
Writing library                  : XviD 1.2.1 (UTC 2008-12-04)

Audio
ID                               : 1
Format                           : AC-3
Format/Info                      : Audio Coding 3
Mode extension                   : CM (complete main)
Codec ID                         : 2000
Duration                         : 54mn 54s
Bit rate mode                    : Constant
Bit rate                         : 448 Kbps
Channel(s)                       : 6 channels
Channel positions                : Front: L C R, Side: L R, LFE
Sampling rate                    : 48.0 KHz
Bit depth                        : 16 bits
Stream size                      : 176 MiB (25%)
Alignment                        : Split accross interleaves
Interleave, duration             : 42 ms (1.00 video frame)
Interleave, preload duration     : 500 ms

the.devils.double.xvid.cd2.avi
Format                           : AVI
Format/Info                      : Audio Video Interleave
File size                        : 701 MiB
Duration                         : 53mn 57s
Overall bit rate                 : 1 816 Kbps
Writing application              : VirtualDubMod 1.5.10.2 (build 2540/release)
Writing library                  : VirtualDubMod build 2540/release

Video
ID                               : 0
Format                           : MPEG-4 Visual
Format profile                   : Advanced Simple@L5
Format settings, BVOP            : Yes
Format settings, QPel            : No
Format settings, GMC             : No warppoints
Format settings, Matrix          : Default (H.263)
Codec ID                         : XVID
Codec ID/Hint                    : XviD
Duration                         : 53mn 57s
Bit rate                         : 1 358 Kbps
Width                            : 640 pixels
Height                           : 272 pixels
Display aspect ratio             : 2.35:1
Frame rate                       : 23.976 fps
Color space                      : YUV
Chroma subsampling               : 4:2:0
Bit depth                        : 8 bits
Scan type                        : Progressive
Bits/(Pixel*Frame)               : 0.325
Stream size                      : 524 MiB (75%)
Writing library                  : XviD 1.2.1 (UTC 2008-12-04)

Audio
ID                               : 1
Format                           : AC-3
Format/Info                      : Audio Coding 3
Mode extension                   : CM (complete main)
Codec ID                         : 2000
Duration                         : 53mn 57s
Bit rate mode                    : Constant
Bit rate                         : 448 Kbps
Channel(s)                       : 6 channels
Channel positions                : Front: L C R, Side: L R, LFE
Sampling rate                    : 48.0 KHz
Bit depth                        : 16 bits
Video delay                      : 6ms
Stream size                      : 173 MiB (25%)
Alignment                        : Split accross interleaves
Interleave, duration             : 42 ms (1.00 video frame)
Interleave, preload duration     : 500 ms
اعلان الفيلم////youtube
YouTube Video
 


http://img155.imageshack.us/img155/4...oublexvidc.jpg

http://img268.imageshack.us/img268/4...oublexvidc.jpg

http://img100.imageshack.us/img100/4...oublexvidc.jpg

http://img687.imageshack.us/img687/4...oublexvidc.jpg

http://img573.imageshack.us/img573/7...ublexvidcq.jpg

http://img573.imageshack.us/img573/4...oublexvidc.jpg


روابط متعددة 400 mb


ifile.it
http://adf.ly/3eGKp
http://adf.ly/3eGKq
http://adf.ly/3eGKr
http://adf.ly/3eGKs

jumbofiles.com

http://adf.ly/3eGKt
http://adf.ly/3eGKu
http://adf.ly/3eGKv
http://adf.ly/3eGKw

0 التعليقات

إرسال تعليق

مسلسل خريف الحب

Friends18.com Orkut Scraps

اذاعه القرأن الكريم 24 ساعه



تنويه الى زوارالموقع الكرام سيتم غلق الفيديو للزوار يمكنكم التسجيلمن اجل امكانية مشاهدة جديد الموقع سجل عضويتك من كلمه انضمام لهذا الموقع فى العمود اللى ع اليمين

لتسجيل نفسك عضو معنا فى الموقع ولمشاهده جميع الفيديوهات دون تقطيع