تنويه الى زوارالموقع الكرام سيتم غلق الفيديو للزوار يمكنكم التسجيلمن اجل امكانية مشاهدة جديد الموقع سجل عضويتك من كلمه انضمام لهذا الموقع فى العمود اللى ع اليمين

لتسجيل نفسك عضو معنا فى الموقع ولمشاهده جميع الفيديوهات دون تقطيع

| 0 التعليقات ]

كود:
Format                           : AVI
Format/Info                      : Audio Video Interleave
File size                        : 1.37 GiB
Duration                         : 1h 29mn
Overall bit rate                 : 2 174 Kbps
Writing application              : VirtualDubMod 1.5.10.2 (build 2540/release)
Writing library                  : VirtualDubMod build 2540/release

Video
ID                               : 0
Format                           : MPEG-4 Visual
Format profile                   : Advanced Simple@L5
Format settings, BVOP            : Yes
Format settings, QPel            : Yes
Format settings, GMC             : 3 warppoints
Format settings, Matrix          : Default (MPEG)
Codec ID                         : XVID
Codec ID/Hint                    : XviD
Duration                         : 1h 29mn
Bit rate                         : 1 780 Kbps
Width                            : 720 pixels
Height                           : 304 pixels
Display aspect ratio             : 2.35:1
Frame rate                       : 25.000 fps
Color space                      : YUV
Chroma subsampling               : 4:2:0
Bit depth                        : 8 bits
Scan type                        : Progressive
Bits/(Pixel*Frame)               : 0.325
Stream size                      : 1.12 GiB (82%)
Writing library                  : XviD 1.2.0.dev47 (UTC 2006-11-01)

Audio
ID                               : 1
Format                           : AC-3
Format/Info                      : Audio Coding 3
Mode extension                   : CM (complete main)
Codec ID                         : 2000
Duration                         : 1h 29mn
Bit rate mode                    : Constant
Bit rate                         : 384 Kbps
Channel(s)                       : 6 channels
Channel positions                : Front: L C R, Side: L R, LFE
Sampling rate                    : 48.0 KHz
Bit depth                        : 16 bits
Stream size                      : 247 MiB (18%)
Alignment                        : Split accross interleaves
Interleave, duration             : 40 ms (1.00 video frame)
Interleave, preload duration     : 500 ms
اعلان الفيلم////youtube
YouTube Video
ERROR: If you can see this, then YouTube is down or you don't have Flash installed.


http://img818.imageshack.us/img818/1...2206h28m02.png

http://img51.imageshack.us/img51/158...2206h27m03.png

http://img683.imageshack.us/img683/3...2206h26m43.png

http://img577.imageshack.us/img577/1...2206h29m33.png

http://img11.imageshack.us/img11/305...2206h27m45.png



رابط واحد Single Link
كود:
http://www.fileserve.com/file/4VDaFmZ/The.Son.of.No.One.2011.DVDRip.XviD.AC3-dvd4arab.__X__.avi

http://www.filesonic.com/file/2704529174/The.Son.of.No.One.2011.DVDRip.XviD.AC3-dvd4arab.__X__.avi

http://www.filefactory.com/file/ce892ee/n/The_Son_of_No_One_2011_DVDRip_XviD_AC3-dvd4arab_X_avi
روابط متعددة 300 mb
يمكنك تحميل اى رابط من اى سيرفر

كود:
http://www.fileserve.com/file/sbTY4Wn/The.Son.11.DVDRip.XviD.AC3-dvd4arab.__X__.part1.rar
http://www.fileserve.com/file/vq7ymTk/The.Son.11.DVDRip.XviD.AC3-dvd4arab.__X__.part2.rar
http://www.fileserve.com/file/BS5q9NE/The.Son.11.DVDRip.XviD.AC3-dvd4arab.__X__.part3.rar
http://www.fileserve.com/file/pXRSdrw/The.Son.11.DVDRip.XviD.AC3-dvd4arab.__X__.part4.rar
http://www.fileserve.com/file/aHuKFY5/The.Son.11.DVDRip.XviD.AC3-dvd4arab.__X__.part5.rar

http://www.filesonic.com/file/2704343564/The.Son.11.DVDRip.XviD.AC3-dvd4arab.__X__.part1.rar
http://www.filesonic.com/file/2704393304/The.Son.11.DVDRip.XviD.AC3-dvd4arab.__X__.part2.rar
http://www.filesonic.com/file/2704362654/The.Son.11.DVDRip.XviD.AC3-dvd4arab.__X__.part3.rar
http://www.filesonic.com/file/2704431044/The.Son.11.DVDRip.XviD.AC3-dvd4arab.__X__.part4.rar
http://www.filesonic.com/file/2704458274/The.Son.11.DVDRip.XviD.AC3-dvd4arab.__X__.part5.rar

http://www.filefactory.com/file/ce892ba/n/The_Son_11_DVDRip_XviD_AC3-dvd4arab_X_part1_rar
http://www.filefactory.com/file/ce8908d/n/The_Son_11_DVDRip_XviD_AC3-dvd4arab_X_part2_rar
http://www.filefactory.com/file/ce8909a/n/The_Son_11_DVDRip_XviD_AC3-dvd4arab_X_part3_rar
http://www.filefactory.com/file/ce8909f/n/The_Son_11_DVDRip_XviD_AC3-dvd4arab_X_part4_rar
http://www.filefactory.com/file/ce89088/n/The_Son_11_DVDRip_XviD_AC3-dvd4arab_X_part5_rar

0 التعليقات

إرسال تعليق

مسلسل خريف الحب

Friends18.com Orkut Scraps

اذاعه القرأن الكريم 24 ساعه



تنويه الى زوارالموقع الكرام سيتم غلق الفيديو للزوار يمكنكم التسجيلمن اجل امكانية مشاهدة جديد الموقع سجل عضويتك من كلمه انضمام لهذا الموقع فى العمود اللى ع اليمين

لتسجيل نفسك عضو معنا فى الموقع ولمشاهده جميع الفيديوهات دون تقطيع