تنويه الى زوارالموقع الكرام سيتم غلق الفيديو للزوار يمكنكم التسجيلمن اجل امكانية مشاهدة جديد الموقع سجل عضويتك من كلمه انضمام لهذا الموقع فى العمود اللى ع اليمين

لتسجيل نفسك عضو معنا فى الموقع ولمشاهده جميع الفيديوهات دون تقطيع

| 0 التعليقات ]









Rise.Of.The.Planet.Of.The.Apes.2011.PPVRIP-IFLIX











http://www.imdb.com/title/tt1318514/

Action
 | 
Drama
 | Sci-Fi
كود:
Language                         : English
Format                           : AVI
Format/Info                      : Audio Video Interleave
Format profile                   : OpenDML
File size                        : 1.62 GiB
Duration                         : 1h 44mn
Overall bit rate                 : 2 211 Kbps

Video
ID                               : 0
Format                           : MPEG-4 Visual
Format profile                   : Simple@L3
Format settings, BVOP            : No
Format settings, QPel            : No
Format settings, GMC             : No warppoints
Format settings, Matrix          : Default (H.263)
Codec ID                         : XVID
Codec ID/Hint                    : XviD
Duration                         : 1h 44mn
Bit rate                         : 2 066 Kbps
Width                            : 640 pixels
Height                           : 480 pixels
Display aspect ratio             : 4:3
Frame rate                       : 29.970 fps
Original frame rate              : 29.000 fps
Resolution                       : 24 bits
Colorimetry                      : 4:2:0
Scan type                        : Progressive
Bits/(Pixel*Frame)               : 0.224
Stream size                      : 1.51 GiB (93%)
Writing library                  : XviD 1.2.1 (UTC 2008-12-04)

Audio
ID                               : 1
Format                           : MPEG Audio
Format version                   : Version 1
Format profile                   : Layer 3
Format_Settings_Mode             : Joint stereo / MS Stereo
Codec ID                         : 55
Codec ID/Hint                    : MP3
Duration                         : 1h 44mn
Bit rate mode                    : Constant
Bit rate                         : 128 Kbps
Channel(s)                       : 2 channels
Sampling rate                    : 44.1 KHz
Resolution                       : 16 bits
Stream size                      : 96.1 MiB (6%)
Alignment                        : Aligned on interleaves
Interleave, duration             : 26 ms (0.78 video frame)
Writing library                  : LAME3.98.2









تحميل الفيلم برابط واحد

fileserve
=========

http://www.fileserve.com/file/a7A5EpM


uploadstation
=========



http://www.uploadstation.com/file/6yv7RTM


تحميل الفيلم مقسم الى جزئين


Fileserve
=============


http://www.fileserve.com/file/VDnNmFY
http://www.fileserve.com/file/cUThAbz


uploadstation
=============


http://www.uploadstation.com/file/qTx3a9w
http://www.uploadstation.com/file/nx7GqUh



تحميل الفيلم مقسم الى 6 اجزاء


Fileserve
=============


http://www.fileserve.com/file/gzBMsEk
http://www.fileserve.com/file/ZQq6SwJ
http://www.fileserve.com/file/BvTUuSJ
http://www.fileserve.com/file/Eymh37Q
http://www.fileserve.com/file/drwvgXB
http://www.fileserve.com/file/fjCW4kB


uploadstation
=============


http://www.uploadstation.com/file/WZWT7RB
http://www.uploadstation.com/file/MkruHGR
http://www.uploadstation.com/file/wEqY83M
http://www.uploadstation.com/file/C6p6hD9
http://www.uploadstation.com/file/uVmd3er
http://www.uploadstation.com/file/MEu24A4


=============

megaupload


0 التعليقات

إرسال تعليق

مسلسل خريف الحب

Friends18.com Orkut Scraps

اذاعه القرأن الكريم 24 ساعه



تنويه الى زوارالموقع الكرام سيتم غلق الفيديو للزوار يمكنكم التسجيلمن اجل امكانية مشاهدة جديد الموقع سجل عضويتك من كلمه انضمام لهذا الموقع فى العمود اللى ع اليمين

لتسجيل نفسك عضو معنا فى الموقع ولمشاهده جميع الفيديوهات دون تقطيع