تنويه الى زوارالموقع الكرام سيتم غلق الفيديو للزوار يمكنكم التسجيلمن اجل امكانية مشاهدة جديد الموقع سجل عضويتك من كلمه انضمام لهذا الموقع فى العمود اللى ع اليمين

لتسجيل نفسك عضو معنا فى الموقع ولمشاهده جميع الفيديوهات دون تقطيع

| 0 التعليقات ]




اخييرا وبعد طول انتظار
 لعشاق الاكشن والفانتازيا والتشويق
Harry.Potter.And.The.Deathly.Hallows.Part.2.DVDRiP.XViD-LTW















http://www.imdb.com/title/tt1201607/


Adventure | Drama | Fantasy

كود:
  1. Release Info
  2. Runtime ..........: 125 min
  3. Video Codec ......: XviD
  4. Video Britate ....: 1678 Kbps
  5. Resolution .......: 672x288
  6. Audio Codec ......: AC3
  7. Audio Bitrate ....: 192 Kbps
  8. Channels .........: 2.0
  9. Language .........: English
  10. Subtitles ........: N/A
  11. File Size.........: 1.46 GB
  12. ===================
  13. Release Name: Harry.Potter.and.the.Deathly.Hallows.Part.2.DVDRip.XviD-LTW
  14. Size: 1,46 GB
  15. Video: XviD | 672╫288 | 1678 Kbps
  16. Audio: English | AC3 | 192 kb/s
  17. Runtime: 125 min
  18. Genre: Action | Adventure | Drama | Fantasy | Mystery
  19. iMDB Rating: 8.3/10
  20. Directed by: David Yates
  21. Starring: Daniel Radcliffe, Emma Watson and Rupert Grint
  22. Format : AVI
  23. Format/Info : Audio Video Interleave
  24. File size : 1.47 GiB
  25. Duration : 2h 5mn
  26. Overall bit rate : 1 678 Kbps
  27. Writing application : VirtualDubMod 1.5.4.1 (build 2178/release)
  28. Writing library : VirtualDubMod build 2178/release
  29. Video
  30. ID : 0
  31. Format : MPEG-4 Visual
  32. Format profile : Advanced Simple@L5
  33. Format settings, BVOP : No
  34. Format settings, QPel : No
  35. Format settings, GMC : No warppoints
  36. Format settings, Matrix : Custom
  37. Codec ID : XVID
  38. Codec ID/Hint : XviD
  39. Duration : 2h 5mn
  40. Bit rate : 1 478 Kbps
  41. Width : 672 pixels
  42. Height : 288 pixels
  43. Display aspect ratio : 2.35:1
  44. Frame rate : 29.970 fps
  45. Color space : YUV
  46. Chroma subsampling : 4:2:0
  47. Bit depth : 8 bits
  48. Scan type : Progressive
  49. Bits/(Pixel*Frame) : 0.255
  50. Stream size : 1.29 GiB (88%)
  51. Writing library : XviD 1.2.1 (UTC 2008-12-04)
  52. Audio
  53. ID : 1
  54. Format : AC-3
  55. Format/Info : Audio Coding 3
  56. Mode extension : CM (complete main)
  57. Codec ID : 2000
  58. Duration : 2h 5mn
  59. Bit rate mode : Constant
  60. Bit rate : 192 Kbps
  61. Channel(s) : 2 channels
  62. Channel positions : Front: L R
  63. Sampling rate : 48.0 KHz
  64. Bit depth : 16 bits
  65. Stream size : 172 MiB (11%)
  66. Alignment : Aligned on interleaves
  67. Interleave, duration : 96 ms (2.88 video frames)
  68. Interleave, preload duration : 96 ms
  69. Language : English






 








تحميل الفيلم برابط واحد

fileserve
=========
http://www.fileserve.com/file/gf5bnZG


uploadstation
===============

http://www.uploadstation.com/file/EDurj7Q



تحميل الفيلم برابطين
fileserve
=========
http://www.fileserve.com/file/JtJwVa9
http://www.fileserve.com/file/CwQkd7c
uploadstation
===============

http://www.uploadstation.com/file/rbqwJsV
http://www.uploadstation.com/file/NaNdaMy
تحميل الفيلم مقسم الى 5 اجزاء


Fileserve
=============

http://www.fileserve.com/file/c4aakkY
http://www.fileserve.com/file/EKJfT6v
http://www.fileserve.com/file/ACS3tth
http://www.fileserve.com/file/vntwyJN
http://www.fileserve.com/file/cG5KhdX
uploadstation
=============


http://www.uploadstation.com/file/USduNsz
http://www.uploadstation.com/file/rqcVsY2
http://www.uploadstation.com/file/XrgHZbF
http://www.uploadstation.com/file/whdx4N2
http://www.uploadstation.com/file/rFM9eNU


megaupload



=============
الترجمة


http://www.megaupload.com/?d=NSUR6LLB

0 التعليقات

إرسال تعليق

مسلسل خريف الحب

Friends18.com Orkut Scraps

اذاعه القرأن الكريم 24 ساعه



تنويه الى زوارالموقع الكرام سيتم غلق الفيديو للزوار يمكنكم التسجيلمن اجل امكانية مشاهدة جديد الموقع سجل عضويتك من كلمه انضمام لهذا الموقع فى العمود اللى ع اليمين

لتسجيل نفسك عضو معنا فى الموقع ولمشاهده جميع الفيديوهات دون تقطيع